#TITLE:Bad Boy;
#SUBTITLE:Tony;
#ARTIST:Son Dam Bi;
#TITLETRANSLIT:;
#SUBTITLETRANSLIT:;
#ARTISTTRANSLIT:;
#CREDIT:Tony;
#BANNER:;
#BACKGROUND:;
#LYRICSPATH:;
#CDTITLE:bad boy.png;
#MUSIC:sdom1306.ogg;
#OFFSET:-0.020;
#SAMPLESTART:108.920;
#SAMPLELENGTH:12.000;
#SELECTABLE:YES;
#DISPLAYBPM:130.000;
#BPMS:0.000=130.000,215.438=-2.740,215.500=130.000,219.938=-2.760,220.000=130.000,238.000=65.000,240.000=130.000;
#STOPS:;
#BGCHANGES:;
// cache tags:
#FIRSTBEAT:36.000;
#LASTBEAT:308.500;
#SONGFILENAME:Songs/SDO pack 2/Bad boy/sdom1306.sm;
#HASMUSIC:1;
#HASBANNER:0;
#MUSICLENGTH:140.081;
// end cache tags

//---------------dance-single - ----------------
#NOTES:
     dance-single:
     :
     Hard:
     12:
     0.992,1.000,1.000,0.336,0.500,574.000,277.000,47.000,51.000,109.000:
0000
0000
0000
0000
,
0000
0000
0000
0000
,
0000
0000
0000
0000
,
0000
0000
0000
0000
,
0000
0000
0000
0000
,
0000
0000
0000
0000
,
0000
0000
0000
0000
,
0000
0000
0000
0000
,
0000
0000
0000
0000
,
1110
0200
1310
0200
1310
0200
0311
0020
,
1131
1002
0113
0002
1013
0002
1013
0020
,
1130
2000
3110
2000
3011
2000
3101
0200
,
1311
0020
1031
0002
0113
0002
1103
0200
,
1311
0020
1130
0020
0131
0020
1031
0200
,
1311
0002
1013
0002
1103
0002
0113
0200
,
1311
0020
0131
0020
0131
2000
3101
0100
,
2211
0000
0000
0000
,
3311
0100
1010
1000
1100
0010
0101
0001
,
1010
0100
1010
1000
1100
0010
0110
0000
,
1011
0100
1010
1000
1100
0010
0101
0000
,
0111
0100
1010
1000
0101
0010
1100
0000
,
1101
0010
1001
0100
1001
1000
1010
0100
,
0121
0000
1000
2000
0030
0001
0000
3000
,
1110
0000
0010
0000
0101
0000
1000
0000
1101
0010
0100
0010
1001
0100
0010
0100
,
1011
0001
0001
0001
1101
0001
0001
0001
1101
0001
0001
0001
1101
0001
0001
0001
,
1102
0100
1010
0010
1010
0100
1100
0100
,
0003
0010
0101
1000
0110
0001
0101
1010
,
0000
1100
0110
0011
0011
0110
1100
0011
,
0000
1100
0000
0110
0000
0011
0000
0000
,
1101
0010
1000
0001
1100
0001
0100
0010
1001
1000
1001
1010
1100
1000
1000
1000
,
1101
0010
1000
0010
0101
1000
0010
1000
0101
0001
1001
0101
0011
0001
0001
0001
,
1011
0100
0001
0010
1101
0001
0001
0001
1110
1000
1000
1000
0111
0010
0010
0010
,
1101
1000
1000
1000
1000
1000
1011
0001
0001
0001
0001
0001
1101
1000
1000
1000
1000
1000
1011
0001
0001
0001
0001
0001
,
1110
0100
1010
0100
1010
0001
0011
0100
,
1110
1000
1100
0010
1001
0001
0110
1000
,
1110
0010
1010
0200
0000
0010
0000
0301
,
1110
0110
0000
1100
0000
0110
0011
0000
,
1011
0100
1100
0110
0000
0011
0000
1010
,
1101
0010
0000
1000
0000
0001
0000
0010
,
1021
0000
0000
0000
0000
0000
1231
0000
0000
0000
0001
0010
1301
0001
0010
0001
,
1011
0100
0101
0100
1011
0100
0010
0001
1011
0100
0010
0100
1011
0001
0100
0010
,
2101
0001
0010
0010
0001
0001
0010
0001
,
3000
0110
0000
0000
0100
0010
1100
0000
,
1011
0011
0110
0110
1100
1001
1010
0101
,
0000
0110
0000
0100
0011
0001
0011
0000
,
1011
0110
1100
0011
1010
0011
0110
1100
,
0000
0011
0000
1000
1100
0010
0102
0000
,
1110
0000
0100
0000
1010
0000
0010
0013
0001
0010
0010
0010
0010
0001
0010
0100
,
1011
0100
0100
0010
1101
0100
1010
0001
1101
0010
0100
1000
1111
0000
0000
0000
,
0010
0010
0000
1000
1000
0000
0001
0000
0001
0001
0000
0001
0001
0000
0010
0001
,
1110
0000
1010
0000
1010
0000
1010
0000
0101
1010
0101
0010
1001
0000
1010
0000
,
0101
0000
0101
0000
0101
0000
1010
0000
1010
0001
0110
0001
1010
0000
1000
0000
,
1110
0000
0101
0000
0101
0000
0110
0000
0110
0001
0110
0001
1010
0000
1001
0000
,
1101
0000
0000
0000
0000
0000
0000
0000
1100
0000
0000
0000
0000
0000
0000
0000
1100
0000
0000
0000
0000
0000
0000
0000
1000
0000
0000
0000
0100
0000
0000
0000
0001
0000
0000
0000
0010
0000
0000
0000
0100
0000
0000
0000
0010
0000
0000
0000
0000
0000
0000
0000
0000
0000
0000
0000
MM00
M000
M000
M000
M010
M000
M000
M000
,
M001
M000
M000
M000
M010
M000
M000
M000
M100
M000
M000
M000
M001
M000
M000
M000
MMM0
0000
0000
0000
0000
0000
0000
0000
M0M0
0000
0000
0000
0000
0000
0000
0000
M0M0
0000
0000
0000
0000
0000
0000
0000
2100
0000
0000
0000
00M0
0000
0000
0000
000M
0000
0000
0000
00M0
0000
0000
0000
0M00
0000
0000
0000
000M
0000
0000
0000
,
3MM0
M0M0
M0M0
M0M0
M0M0
M0M0
0110
1010
,
1010
0100
1010
0001
0110
0000
1100
0000
0011
0000
0011
0000
0110
0000
0110
0000
,
1010
1000
0110
0010
0011
0000
0011
0000
1110
0000
1010
0000
1010
0000
0101
0000
,
0101
0001
0110
0100
1100
0000
0110
0000
0111
1000
0010
0100
0011
1000
0010
0100
,
1001
0010
0100
0001
1010
0100
0010
0001
1010
0100
0001
0100
M010
0001
0010
000M
,
1110
0100
1010
0100
1010
0001
0011
0100
,
1110
1000
1100
0010
1001
0001
0110
1000
,
1110
0010
1010
0200
0000
0010
0000
0301
,
1110
0110
0000
1100
0000
0110
0011
0000
,
1011
0100
1100
0110
0000
0011
0000
1010
,
1101
0010
0000
1000
0000
0100
0000
0010
,
2101
0000
0000
0000
0000
0000
3121
0000
0000
0000
1000
0000
1131
0001
0100
0010
,
1101
0010
0001
0001
1110
0100
0100
0010
1101
0010
0010
0010
1101
0010
0010
0010
,
1102
1000
0100
0100
1100
0000
0100
1000
,
0000
1103
0000
0000
1010
0100
1100
0000
,
1101
1100
0110
0011
0110
0110
1100
0011
,
0000
0110
0010
1000
1100
0001
0100
0100
,
1011
0011
0110
0011
1100
0110
1100
0110
,
0000
0011
0000
0010
0011
0010
2001
0100
,
0011
0110
0110
0011
0000
0110
0000
0011
,
3111
0100
1011
1000
1110
0001
0111
0000
,
2000
0000
0002
3000
2000
0003
0002
3000
,
0000
0003
0000
0000
0000
0000
0000
0000
;
